The Mentalist
The Originals

Great American Railroad Journeys S03E17 Monterey to Santa Barbara...

Size 498.4 MB   3 seeders     Added 5 days ago

Great American Railroad Journeys S03E17 Monterey to Santa Barbara (720p HD, soft Eng subs) Steered by his late-19th-century Appleton's guidebook, Michael Portillo continues his railroad travels through southern California aboard the Coast Starlight service. In the historic port of Monterey, Michael raises the Bear Flag of the one-time Republic of California and above it, the Stars and Stripes. He discovers the city's Spanish and Mexican heritage and traces how the former fishing port described as 'stinking and decrepit' in John Steinbeck's novel Cannery Row has become a beacon for tourists. And how, in place of fish-processing canneries, there now stands a gleaming, state-of-the art aquarium, where Michael is invited to feed the fish. Michael's next stop is Paso de Robles, where he tours the magnificent Hearst Castle, dream home of the newspaper baron William Randolph Hearst, to hear the tale of its creation. Onward to San Luis Obispo and the hills of Morro Bay and Michael joins avocado farmer Jim Shanley, amid his 4,000 avocado trees to harvest the pears and then learn how to make guacamole. Michael's last stop on this leg is outside Santa Barbara at Rancho Camulos, a former cattle ranch owned by a prominent Hispanic family and the setting for a best-selling romantic novel of the 19th century.
(with soft subtitles) First broadcast: 13 February 2018
 Duration: 30 minutes  Media info:-
General
Format : MPEG-4
Format profile : Base Media
Codec ID : isom (isom/iso2/avc1/mp41)
File size : 497 MiB
Duration : 29mn 0s
Overall bit rate mode : Variable
Overall bit rate : 2 398 Kbps
Writing application : Lavf57.25.100 Video
ID : 1
Format : AVC
Format/Info : Advanced Video Codec
Format profile : [email protected] Format settings, CABAC : Yes
Format settings, ReFrames : 2 frames
Codec ID : avc1
Codec ID/Info : Advanced Video Coding
Duration : 29mn 0s
Bit rate mode : Variable
Bit rate : 2 299 Kbps
Maximum bit rate : 3 500 Kbps
Width : 1 280 pixels
Height : 720 pixels
Display aspect ratio : 16:9
Frame rate mode : Constant
Frame rate : 25.000 fps
Color space : YUV
Chroma subsampling : 4:2:0
Bit depth : 8 bits
Scan type : Progressive
Bits/(Pixel*Frame) : 0.100
Stream size : 477 MiB (96%)
Audio
ID : 2
Format : AAC
Format/Info : Advanced Audio Codec
Format profile : LC
Codec ID : 40
Duration : 28mn 59s
Bit rate mode : Constant
Bit rate : 93.4 Kbps
Channel(s) : 2 channels
Channel positions : Front: L R
Sampling rate : 48.0 KHz
Frame rate : 46.875 fps (1024 spf)
Compression mode : Lossy
Stream size : 19.4 MiB (4%)

udp://tracker.coppersurfer.tk:6969/announce
udp://tracker.zer0day.to:1337/announce
udp://tracker.leechers-paradise.org:6969/announce
udp://coppersurfer.tk:6969/announce

4000 symbols left
Hash ce9551121519e197b5757ea13fd4b6876ede1129